#TITLE:Xe Dap Teen;
#SUBTITLE:;
#ARTIST:Khoi My & Duy Anh;
#TITLETRANSLIT:;
#SUBTITLETRANSLIT:;
#ARTISTTRANSLIT:Khoi My & Duy Anh;
#CREDIT:;
#BANNER:Xe Dap Teen-bn.png;
#BACKGROUND:Xe Dap Teen-bg.png;
#LYRICSPATH:;
#CDTITLE:pm4cd.png;
#MUSIC:Xe Dap Teen.mp3;
#OFFSET:0.160;
#SAMPLESTART:69.250;
#SAMPLELENGTH:20.000;
#SELECTABLE:YES;
#BPMS:0.000=150.000,508.000=65.000,510.833=65.000,512.000=150.000,514.667=150.000;
#STOPS:;
#BGCHANGES:;
// cache tags:
#FIRSTBEAT:5.500;
#LASTBEAT:659.000;
#SONGFILENAME:Songs/Music V.I.P ^_^/Xe Dap Teen/Xe Dap Teen.sm;
#HASMUSIC:1;
#HASBANNER:1;
#MUSICLENGTH:271.289;
// end cache tags

//---------------dance-single - ----------------
#NOTES:
     dance-single:
     :
     Hard:
     15:
     1.000,1.000,1.000,0.472,0.464,1317.000,413.000,128.000,0.000,324.000:
0000
0000
0000
0000
,
0000
0000
0000
0000
0000
0000
1100
1100
1100
0000
0100
0000
0100
0000
0010
0000
,
0101
0000
0010
0100
1000
0000
0100
0000
0010
0000
0001
0000
1010
0000
0100
0000
,
0001
0010
0100
0010
1000
1000
0011
0001
,
0100
1000
0010
0100
0010
0001
1010
0100
,
1000
0010
0001
0100
1000
0010
1100
0001
,
1000
0000
0100
0010
0001
0000
1000
0000
0100
0000
0010
0000
0101
0000
0010
0000
,
0100
0001
0010
0100
0100
1000
1001
0010
,
0001
0010
0100
1000
0100
0010
0101
0010
,
0001
0000
0100
0000
1000
0000
0110
0110
0110
0000
0110
0000
0110
0000
0000
0000
,
1101
0000
0010
0100
1000
0000
0011
0000
1000
0000
0010
0000
1100
0000
1000
0000
,
0101
0010
0001
0110
1000
0010
1100
0001
,
1010
0100
1000
0011
0100
0010
1001
0010
,
0101
0101
0000
0101
1000
0100
1010
0001
,
1100
0000
0001
0010
0100
0000
0011
0000
0100
0000
0001
0000
0110
0000
0001
0000
,
1100
0010
0001
1010
0100
0010
1001
0010
,
0101
1000
0010
1100
0010
0001
0110
0001
,
1100
1100
0000
1100
0010
0101
0101
0010
,
2102
0000
0000
0000
0000
0000
0110
0110
3113
0000
0100
0000
0100
0000
1000
0000
,
1000
0100
0001
0010
0100
0000
0010
0000
,
1000
0100
0010
0001
1000
0000
0010
0000
,
0001
0010
0001
0100
0010
0000
0100
0000
,
1000
0100
0010
0100
1000
0100
1000
0100
,
0010
0001
0000
0100
0000
0010
1000
0000
,
0010
0100
0010
0001
0010
0000
0100
0000
,
0001
0010
0100
0010
0001
0000
1000
0000
,
0010
0100
0010
0001
1000
0000
0100
0000
,
1010
0000
0001
0010
0100
0000
1000
0000
0100
0000
0010
0000
0101
0000
0010
0000
,
0001
0000
0000
0010
0100
0001
1100
0010
,
0100
0000
1000
0100
0010
0001
1010
0100
,
1000
0000
0100
1000
0100
1000
0101
0010
,
0001
0000
0010
0100
1000
0000
0010
0000
0100
0000
0010
0000
1001
0000
0010
0000
,
0100
0000
0000
0010
0010
0001
1001
0010
,
0200
0000
0020
1001
,
1302
0100
1000
0100
1030
0110
0110
1000
,
2213
0000
0000
0000
0000
0000
0011
0011
3311
0000
0000
0000
0010
0000
0100
0000
,
2000
0200
3020
1301
,
0032
0000
0020
0000
0203
0000
1031
0010
,
1300
0000
0010
0100
1000
0000
0101
0010
,
0000
0020
0000
0000
0000
0000
1130
0010
,
0101
0000
0000
1100
0011
0000
0101
1000
,
0011
0011
0000
1100
0001
0001
1010
0100
,
1222
0000
0000
0000
0000
0000
0000
0333
2221
0000
0000
0000
0000
0000
0000
3330
,
1222
0000
1000
0000
0000
0000
1000
0333
0100
0000
0010
0010
0011
0001
0001
0001
,
1020
0100
0001
1000
0001
0100
1001
0100
1001
0100
0001
0100
1001
0100
0001
1000
,
0131
0000
0000
1100
1001
0110
0011
0110
,
2001
0100
0001
0010
0100
0001
0110
0001
0110
0001
0010
0100
0011
0100
0001
0010
,
3101
0000
0000
1100
0110
0011
0110
1100
,
1002
0010
0100
1000
0010
0100
1010
0100
1010
0100
1000
0010
1100
0010
1000
0100
,
0023
0100
0001
1000
0100
0001
1100
0001
0100
1000
1001
0100
1001
0100
1001
0100
,
2031
0100
0010
0100
0001
0010
0101
0010
0101
0010
0100
0001
0110
0001
0010
0001
,
3120
0001
1000
0100
1000
0001
1100
0001
0100
1000
0001
0001
0101
0100
0100
0100
,
1032
0100
0010
1000
0010
0100
1010
0100
1010
0100
0010
1000
0110
1000
0100
0010
,
1103
0000
0000
0101
1010
0110
0101
0011
,
0120
1000
0100
1000
0100
0001
1100
0001
1100
0001
0100
1000
0101
1000
0001
0100
,
1031
0000
0000
1100
0101
1010
1001
0110
,
0021
0100
0001
1000
0200
0001
1000
0001
1030
0010
0001
0010
1301
0010
0100
1000
,
0102
0010
1000
0100
2000
0010
0100
0010
0103
0010
0001
0010
3101
0010
0001
0100
,
1020
0001
1000
0100
0001
1000
0101
1000
0101
1000
0001
0100
1001
0100
1000
0001
,
2130
0010
0001
0100
0010
0100
0011
0100
0011
0001
0110
0001
0110
0001
0110
0001
,
3220
0000
0302
0000
,
2233
0010
0001
0010
0001
0010
0011
0010
,
0001
0010
0001
0010
0001
0001
0011
0010
,
3322
0100
1000
0100
1000
0100
1100
0100
,
1000
0100
1000
0100
1000
0100
1100
0100
,
2233
0010
0001
0010
0001
0010
0001
0010
,
3322
0100
1000
0100
1000
1000
1100
0100
,
2233
0001
0010
0001
0010
0001
0011
0001
,
3310
0000
0100
0000
0010
0000
0001
0000
0010
0000
0101
0000
1100
0100
0100
1000
,
2021
0100
0001
0100
0001
0100
0101
0100
,
0001
0100
0001
0100
0001
0001
0101
0100
,
3232
0010
1000
0010
1000
0010
1010
0010
,
1000
0010
1000
0010
1000
0010
1010
0010
,
2323
0100
0001
0100
0001
0100
0001
0100
,
3232
1000
0010
1000
0010
1000
1010
1000
,
2323
0100
0001
0100
0001
0100
0101
0100
,
3031
0000
0010
0000
0100
0000
1000
0000
0101
0000
0010
0010
0110
0100
0100
1000
,
1110
0000
0001
0010
0100
0000
1010
0000
0100
0000
0010
0000
0101
0000
0010
0000
,
1100
0010
0001
0110
1000
0010
1100
0001
,
1010
0100
1000
0101
1000
0010
1100
0010
,
0101
0101
0000
0101
1000
0100
0011
0001
,
1110
0000
0100
0010
0001
0000
0110
0000
1000
0000
0100
0000
0011
0000
0100
0000
,
1001
0010
0100
0011
0100
1000
1100
0010
,
0101
0100
1000
1100
0010
0001
1010
0100
,
0110
0110
0000
0110
0001
1100
1100
0010
,
1221
0000
0000
0000
0000
0000
1001
1001
1331
0000
0010
0000
0010
0000
0001
0000
,
0001
1000
0010
0100
1000
0001
0110
0000
,
0001
0100
0010
1000
0100
0100
1010
0000
,
0100
0010
0001
0010
0100
0010
1001
0000
,
0010
0100
1000
0100
1000
0100
0011
0100
,
0001
0010
0000
1000
0000
0010
0101
0000
,
1000
0100
0010
0001
1000
1000
0110
0000
,
1000
0010
0100
0010
1000
0100
1010
0000
,
0010
0000
0001
0000
1000
0000
0001
0100
1010
0000
1010
0000
1010
0000
0100
0000
,
1101
0000
0010
0100
1000
0000
0011
0000
1000
0000
0010
0000
1100
0000
1000
0000
,
0101
0010
0001
0110
1000
0010
1100
0001
,
1010
0100
1000
0011
0100
0010
1001
0010
,
0101
0101
0000
0101
1000
0100
1010
0001
,
1100
0000
0001
0010
0100
0000
0011
0000
0100
0000
0001
0000
0110
0000
0001
0000
,
1100
0010
0001
1010
0100
0010
1001
0010
,
2001
0000
0120
3101
,
1200
1001
0000
1001
0030
0011
0011
1000
,
2321
0000
0000
0000
0000
0000
0101
0101
3131
0000
0000
0000
0100
0000
1000
0000
,
0200
0000
0002
0000
0320
0000
1103
0001
,
0230
0000
0020
0000
0302
0000
1130
0100
,
0013
0000
0100
0010
0001
0000
1100
0001
,
0000
0020
0000
0000
0000
0000
1031
0100
,
1010
0000
0000
0101
1010
0000
1100
0100
,
1001
1001
0000
0110
1000
1000
0101
0010
,
2122
0000
0000
0000
0000
0000
0000
3033
2212
0000
0000
0000
0000
0000
0000
3303
,
2122
0000
0100
0000
0000
0000
0100
3033
0010
0000
0100
0100
1100
1000
1000
1000
,
2100
0001
0010
0100
0001
0010
0101
0010
0101
0010
0100
0001
0110
0001
0010
0100
,
3011
0000
0000
1100
0011
0110
0101
1010
,
1020
0100
0001
1000
0100
0001
1100
0001
1100
0001
1000
0100
1001
0100
0001
1000
,
0131
0000
0000
0101
1010
0101
1001
0110
,
0012
1000
0100
1000
0100
0010
1100
0010
1100
0010
1000
0100
1010
0100
0010
1000
,
0123
1000
0100
0001
0100
0001
1100
1000
0100
1000
0101
1000
0101
1000
0101
1000
,
0132
0010
0100
1000
0010
1000
0110
1000
0110
1000
0010
0100
1010
1000
0100
1000
,
0123
1000
0001
0100
1000
0100
1001
0100
0001
0100
1000
1000
1100
0100
0100
0100
,
1032
0010
0100
1000
0010
0100
1010
0100
1010
0100
0010
1000
0110
1000
0100
0010
,
1103
0000
0000
1001
1010
1100
0101
0110
,
0021
0100
0001
1000
0001
0100
1001
0100
1001
0100
0001
1000
0101
1000
0100
0001
,
1130
0000
0000
1010
0011
0110
1100
0101
,
0012
0100
0010
1000
0200
0010
1000
0010
1003
0010
0001
0010
1301
0010
0100
1000
,
0201
0010
1000
0010
2001
0010
0001
0010
0301
0010
0100
0010
3101
0010
0001
0100
,
1020
0100
0001
0100
1000
0001
1100
0001
1100
0001
0100
1000
0101
1000
0100
0001
,
1230
0010
0001
1000
0010
0001
1010
0001
0010
1000
0011
1000
0011
1000
0011
1000
,
1311
0000
0000
0000
0000
0000
0000
0000
0000
0000
0000
0000
0000
0000
0000
0000
0000
0000
0000
0000
0000
0000
0000
0000
1011
0000
0000
0000
0000
0000
0000
0000
0000
0000
0000
0000
0000
0000
0000
0000
0000
0000
0000
0000
0000
0000
0000
0000
1101
0000
0000
0000
0000
0000
0000
0000
0000
0000
0000
0000
0000
0000
0000
0000
0000
0000
0000
0000
0000
0000
0000
0000
0000
0000
0000
0000
1101
0000
0000
0000
0000
0000
0000
0000
0000
0000
0000
0000
0000
0000
0000
0000
0000
0000
0000
0000
0000
0000
0000
0000
0000
0000
0000
0000
0000
0000
0000
0000
1111
0000
0000
0000
0000
0000
0000
0000
0000
0000
0000
0000
1110
0000
0000
0000
0000
0000
0000
0000
0000
0000
0000
0000
0000
0000
0000
0000
0000
0000
0000
0000
0000
0000
0000
0000
1100
0000
0000
0000
0000
0000
0000
0000
0000
0000
0000
0000
0010
0000
0000
0000
0000
0000
0000
0000
0000
0000
0000
0000
0001
0000
0000
0000
0000
0000
0000
0000
0000
0000
0000
0000
0001
0000
0000
0000
0000
0000
0001
0000
0000
0000
0000
0000
,
0001
0001
0001
0001
1002
0010
0100
1000
0010
1000
0110
1000
0100
0010
0100
0010
,
1010
0100
0010
1000
0113
0000
0000
0110
0000
0000
1001
0000
1010
0000
0110
0000
,
0101
0000
0011
0000
1020
0001
0100
1000
0001
1000
0101
0100
1000
0100
0001
0100
,
1001
0100
0001
1000
0131
0000
0000
0101
0000
0000
0110
0000
1001
0000
1010
0000
,
1001
0101
1011
0100
1001
0000
0100
0010
,
0001
0010
1101
0010
1001
0100
0100
0010
,
0001
0000
0001
0000
1110
0000
0000
0000
0000
0000
1111
0000
1111
0000
0000
1111
,
0000
0000
1111
0000
2121
0000
0000
0000
0000
0000
0100
0000
0001
0000
0100
0100
,
0101
0001
0001
0001
3032
0000
0000
0000
0000
0000
0000
0000
0000
0000
0000
0000
,
1010
0023
0000
0000
,
1100
0230
0000
0000
,
0011
0000
2300
0000
0000
0100
0010
0001
,
0101
0100
3020
0000
0200
0000
1030
0010
,
0301
0010
0002
0000
2000
0000
0103
0100
,
3011
0001
0020
0000
0000
0000
0000
0000
,
1100
0000
0230
0000
0000
0000
0000
1001
,
1001
1001
0322
0000
0000
0000
0000
0000
,
0200
2033
0000
0010
,
0001
3320
0001
1000
,
0100
0032
0000
0010
,
0100
2003
0010
0100
,
0001
0010
3200
0000
0000
0000
0000
0000
,
0010
0320
0000
0000
,
0000
0032
0000
0000
,
0100
0013
0100
1000
,
0100
2002
0000
0000
,
0000
0000
0000
0000
3003
0000
0020
0000
0000
0000
1100
1100
1100
0000
1000
0000
,
0100
0000
0001
0000
1131
0000
0010
0100
1000
0000
0011
0000
1000
0000
0010
0000
,
1100
1000
0101
0010
0001
0110
1000
0010
,
1100
0001
1010
0100
1000
0011
0100
0010
,
1001
0010
0101
0101
0000
0101
1000
0100
,
1010
0000
0001
0000
1100
0000
0001
0010
0100
0000
0011
0000
0100
0000
0001
0000
,
0110
0001
1100
0010
0001
1010
0100
0010
,
1001
0010
0101
1000
0010
1100
0010
0001
,
0110
0001
1100
1100
0000
1100
0010
0101
,
0101
0010
2102
0000
0000
0000
3223
0000
,
0000
0000
0000
0330
;

//---------------dance-single - ----------------
#NOTES:
     dance-single:
     :
     Easy:
     1:
     0.000,0.000,0.000,0.000,0.000,0.000,0.000,0.000,0.000,0.000:
0000
0000
0000
0000
;

//---------------dance-single - Copied from----------------
#NOTES:
     dance-single:
     Copied from:
     Medium:
     1:
     0.000,0.000,0.000,0.000,0.000,0.000,0.000,0.000,0.000,0.000:
0000
0000
0000
0000
;
